  0
SECTION
  2
HEADER
  9
$ACADVER
  1
AC1012
  9
$DWGCODEPAGE
  3
ANSI_1252
  9
$INSBASE
 10
0.0
 20
0.0
 30
0.0
  9
$EXTMIN
 10
5.416249801645356
 20
4.776357221393542
 30
0.0
  9
$EXTMAX
 10
8.220677603369516
 20
7.412904642362157
 30
0.0
  9
$LIMMIN
 10
0.0
 20
0.0
  9
$LIMMAX
 10
12.0
 20
9.0
  9
$ORTHOMODE
 70
     0
  9
$REGENMODE
 70
     1
  9
$FILLMODE
 70
     1
  9
$QTEXTMODE
 70
     0
  9
$MIRRTEXT
 70
     1
  9
$DRAGMODE
 70
     2
  9
$LTSCALE
 40
1.0
  9
$OSMODE
 70
     0
  9
$ATTMODE
 70
     1
  9
$TEXTSIZE
 40
0.2
  9
$TRACEWID
 40
0.05
  9
$TEXTSTYLE
  7
STANDARD
  9
$CLAYER
  8
0
  9
$CELTYPE
  6
BYLAYER
  9
$CECOLOR
 62
   256
  9
$CELTSCALE
 40
1.0
  9
$DELOBJ
 70
     1
  9
$DISPSILH
 70
     0
  9
$DIMSCALE
 40
1.0
  9
$DIMASZ
 40
0.18
  9
$DIMEXO
 40
0.0625
  9
$DIMDLI
 40
0.38
  9
$DIMRND
 40
0.0
  9
$DIMDLE
 40
0.0
  9
$DIMEXE
 40
0.18
  9
$DIMTP
 40
0.0
  9
$DIMTM
 40
0.0
  9
$DIMTXT
 40
0.18
  9
$DIMCEN
 40
0.09
  9
$DIMTSZ
 40
0.0
  9
$DIMTOL
 70
     0
  9
$DIMLIM
 70
     0
  9
$DIMTIH
 70
     1
  9
$DIMTOH
 70
     1
  9
$DIMSE1
 70
     0
  9
$DIMSE2
 70
     0
  9
$DIMTAD
 70
     0
  9
$DIMZIN
 70
     0
  9
$DIMBLK
  1

  9
$DIMASO
 70
     1
  9
$DIMSHO
 70
     1
  9
$DIMPOST
  1

  9
$DIMAPOST
  1

  9
$DIMALT
 70
     0
  9
$DIMALTD
 70
     2
  9
$DIMALTF
 40
25.4
  9
$DIMLFAC
 40
1.0
  9
$DIMTOFL
 70
     0
  9
$DIMTVP
 40
0.0
  9
$DIMTIX
 70
     0
  9
$DIMSOXD
 70
     0
  9
$DIMSAH
 70
     0
  9
$DIMBLK1
  1

  9
$DIMBLK2
  1

  9
$DIMSTYLE
  2
STANDARD
  9
$DIMCLRD
 70
     0
  9
$DIMCLRE
 70
     0
  9
$DIMCLRT
 70
     0
  9
$DIMTFAC
 40
1.0
  9
$DIMGAP
 40
0.09
  9
$DIMJUST
 70
     0
  9
$DIMSD1
 70
     0
  9
$DIMSD2
 70
     0
  9
$DIMTOLJ
 70
     1
  9
$DIMTZIN
 70
     0
  9
$DIMALTZ
 70
     0
  9
$DIMALTTZ
 70
     0
  9
$DIMFIT
 70
     3
  9
$DIMUPT
 70
     0
  9
$DIMUNIT
 70
     2
  9
$DIMDEC
 70
     2
  9
$DIMTDEC
 70
     2
  9
$DIMALTU
 70
     2
  9
$DIMALTTD
 70
     2
  9
$DIMTXSTY
  7
STANDARD
  9
$DIMAUNIT
 70
     0
  9
$LUNITS
 70
     2
  9
$LUPREC
 70
     4
  9
$SKETCHINC
 40
0.1
  9
$FILLETRAD
 40
0.5
  9
$AUNITS
 70
     0
  9
$AUPREC
 70
     0
  9
$MENU
  1
.
  9
$ELEVATION
 40
0.0
  9
$PELEVATION
 40
0.0
  9
$THICKNESS
 40
0.0
  9
$LIMCHECK
 70
     0
  9
$BLIPMODE
 70
     0
  9
$CHAMFERA
 40
0.5
  9
$CHAMFERB
 40
0.5
  9
$CHAMFERC
 40
1.0
  9
$CHAMFERD
 40
0.0
  9
$SKPOLY
 70
     0
  9
$TDCREATE
 40
2452179.531940394
  9
$TDUPDATE
 40
2452646.435588309
  9
$TDINDWG
 40
0.0009981481
  9
$TDUSRTIMER
 40
0.0009981481
  9
$USRTIMER
 70
     1
  9
$ANGBASE
 50
0.0
  9
$ANGDIR
 70
     0
  9
$PDMODE
 70
     0
  9
$PDSIZE
 40
0.0
  9
$PLINEWID
 40
0.0
  9
$COORDS
 70
     1
  9
$SPLFRAME
 70
     0
  9
$SPLINETYPE
 70
     6
  9
$SPLINESEGS
 70
     8
  9
$ATTDIA
 70
     1
  9
$ATTREQ
 70
     1
  9
$HANDLING
 70
-16383
  9
$HANDSEED
  5
1A4
  9
$SURFTAB1
 70
     6
  9
$SURFTAB2
 70
     6
  9
$SURFTYPE
 70
     6
  9
$SURFU
 70
     6
  9
$SURFV
 70
     6
  9
$UCSNAME
  2

  9
$UCSORG
 10
0.0
 20
0.0
 30
0.0
  9
$UCSXDIR
 10
1.0
 20
0.0
 30
0.0
  9
$UCSYDIR
 10
0.0
 20
1.0
 30
0.0
  9
$PUCSNAME
  2

  9
$PUCSORG
 10
0.0
 20
0.0
 30
0.0
  9
$PUCSXDIR
 10
1.0
 20
0.0
 30
0.0
  9
$PUCSYDIR
 10
0.0
 20
1.0
 30
0.0
  9
$USERI1
 70
     0
  9
$USERI2
 70
     0
  9
$USERI3
 70
     0
  9
$USERI4
 70
     0
  9
$USERI5
 70
     0
  9
$USERR1
 40
0.0
  9
$USERR2
 40
0.0
  9
$USERR3
 40
0.0
  9
$USERR4
 40
0.0
  9
$USERR5
 40
0.0
  9
$WORLDVIEW
 70
     1
  9
$SHADEDGE
 70
     3
  9
$SHADEDIF
 70
    70
  9
$TILEMODE
 70
     1
  9
$MAXACTVP
 70
    64
  9
$PINSBASE
 10
0.0
 20
0.0
 30
0.0
  9
$PLIMCHECK
 70
     0
  9
$PEXTMIN
 10
1.000000000000000E+20
 20
1.000000000000000E+20
 30
1.000000000000000E+20
  9
$PEXTMAX
 10
-1.000000000000000E+20
 20
-1.000000000000000E+20
 30
-1.000000000000000E+20
  9
$PLIMMIN
 10
0.0
 20
0.0
  9
$PLIMMAX
 10
12.0
 20
9.0
  9
$UNITMODE
 70
     0
  9
$VISRETAIN
 70
     1
  9
$PLINEGEN
 70
     0
  9
$PSLTSCALE
 70
     1
  9
$TREEDEPTH
 70
  3020
  9
$PICKSTYLE
 70
     1
  9
$CMLSTYLE
  2
STANDARD
  9
$CMLJUST
 70
     0
  9
$CMLSCALE
 40
1.0
  9
$SAVEIMAGES
 70
     1
  0
ENDSEC
  0
SECTION
  2
CLASSES
  0
CLASS
  1
ACDBDICTIONARYWDFLT
  2
AcDbDictionaryWithDefault
  3
AutoCAD 2000
 90
    32768
280
     0
281
     0
  0
CLASS
  1
ACDBPLACEHOLDER
  2
AcDbPlaceHolder
  3
AutoCAD 2000
 90
    32768
280
     0
281
     0
  0
CLASS
  1
LAYOUT
  2
AcDbLayout
  3
AutoCAD 2000
 90
    32768
280
     0
281
     0
  0
CLASS
  1
LONG_TRANSACTION
  2
AcDbLongTransaction
  3
AutoCAD 2000
 90
    32768
280
     0
281
     0
  0
CLASS
  1
LWPOLYLINE
  2
AcDbPolyline
  3
AutoCAD 2000
 90
    32768
280
     0
281
     1
  0
CLASS
  1
HATCH
  2
AcDbHatch
  3
AutoCAD 2000
 90
    32768
280
     0
281
     1
  0
CLASS
  1
XRECORD
  2
AcDbXrecord
  3
AutoCAD 2000
 90
    32768
280
     0
281
     0
  0
ENDSEC
  0
SECTION
  2
TABLES
  0
TABLE
  2
VPORT
  5
8
330
0
100
AcDbSymbolTable
 70
     3
  0
VPORT
  5
159
330
8
100
AcDbSymbolTableRecord
100
AcDbViewportTableRecord
  2
*ACTIVE
 70
     0
 10
0.0
 20
0.0
 11
1.0
 21
1.0
 12
6.978380274783158
 22
5.547794097955751
 13
0.0
 23
0.0
 14
0.5
 24
0.5
 15
0.5
 25
0.5
 16
0.0
 26
0.0
 36
1.0
 17
0.0
 27
0.0
 37
0.0
 40
8.99999999161816
 41
1.462515883100381
 42
50.0
 43
0.0
 44
0.0
 50
0.0
 51
0.0
 71
     0
 72
   100
 73
     1
 74
     3
 75
     0
 76
     0
 77
     0
 78
     0
  0
ENDTAB
  0
TABLE
  2
LTYPE
  5
5
330
0
100
AcDbSymbolTable
 70
     1
  0
LTYPE
  5
14
330
5
100
AcDbSymbolTableRecord
100
AcDbLinetypeTableRecord
  2
BYBLOCK
 70
     0
  3

 72
    65
 73
     0
 40
0.0
  0
LTYPE
  5
15
330
5
100
AcDbSymbolTableRecord
100
AcDbLinetypeTableRecord
  2
BYLAYER
 70
     0
  3

 72
    65
 73
     0
 40
0.0
  0
LTYPE
  5
16
330
5
100
AcDbSymbolTableRecord
100
AcDbLinetypeTableRecord
  2
CONTINUOUS
 70
     0
  3
Solid line
 72
    65
 73
     0
 40
0.0
  0
ENDTAB
  0
TABLE
  2
LAYER
  5
2
330
0
100
AcDbSymbolTable
 70
     4
  0
LAYER
  5
10
330
2
100
AcDbSymbolTableRecord
100
AcDbLayerTableRecord
  2
0
 70
     0
 62
     7
  6
CONTINUOUS
  0
LAYER
  5
34
330
2
100
AcDbSymbolTableRecord
100
AcDbLayerTableRecord
  2
L
 70
     0
 62
     7
  6
CONTINUOUS
  0
LAYER
  5
45
330
2
100
AcDbSymbolTableRecord
100
AcDbLayerTableRecord
  2
DEFPOINTS
 70
     0
 62
     7
  6
CONTINUOUS
  0
LAYER
  5
88
330
2
100
AcDbSymbolTableRecord
100
AcDbLayerTableRecord
  2
TX
 70
     0
 62
   150
  6
CONTINUOUS
  0
ENDTAB
  0
TABLE
  2
STYLE
  5
3
330
0
100
AcDbSymbolTable
 70
     3
  0
STYLE
  5
11
330
3
100
AcDbSymbolTableRecord
100
AcDbTextStyleTableRecord
  2
STANDARD
 70
     0
 40
0.0
 41
1.0
 50
0.0
 71
     0
 42
0.2
  3
txt
  4

  0
STYLE
  5
35
330
3
100
AcDbSymbolTableRecord
100
AcDbTextStyleTableRecord
  2
REG
 70
     0
 40
0.0
 41
1.0
 50
0.0
 71
     0
 42
0.09375
  3
E:\R13\com\fonts\ARCHITXT.SHX
  4

  0
STYLE
  5
36
330
3
100
AcDbSymbolTableRecord
100
AcDbTextStyleTableRecord
  2
DIMTXT
 70
     0
 40
0.0
 41
1.0
 50
0.0
 71
     0
 42
1.125
  3
archt.shx
  4

  0
ENDTAB
  0
TABLE
  2
VIEW
  5
6
330
0
100
AcDbSymbolTable
 70
     0
  0
ENDTAB
  0
TABLE
  2
UCS
  5
7
330
0
100
AcDbSymbolTable
 70
     0
  0
ENDTAB
  0
TABLE
  2
APPID
  5
9
330
0
100
AcDbSymbolTable
 70
     1
  0
APPID
  5
12
330
9
100
AcDbSymbolTableRecord
100
AcDbRegAppTableRecord
  2
ACAD
 70
     0
  0
ENDTAB
  0
TABLE
  2
DIMSTYLE
  5
A
330
0
100
AcDbSymbolTable
 70
     6
  0
DIMSTYLE
105
27
102
{ACAD_REACTORS
330
C1
330
CF
102
}
330
A
100
AcDbSymbolTableRecord
100
AcDbDimStyleTableRecord
  2
STANDARD
 70
     0
  3

  4

  5

  6

  7

 40
1.0
 41
0.18
 42
0.0625
 43
0.38
 44
0.18
 45
0.0
 46
0.0
 47
0.0
 48
0.0
140
0.18
141
0.09
142
0.0
143
25.4
144
1.0
145
0.0
146
1.0
147
0.09
 71
     0
 72
     0
 73
     1
 74
     1
 75
     0
 76
     0
 77
     0
 78
     0
170
     0
171
     2
172
     0
173
     0
174
     0
175
     0
176
     0
177
     0
178
     0
270
     2
271
     2
272
     2
273
     2
274
     2
340
11
275
     0
280
     0
281
     0
282
     0
283
     1
284
     0
285
     0
286
     0
287
     3
288
     0
  0
DIMSTYLE
105
37
330
A
100
AcDbSymbolTableRecord
100
AcDbDimStyleTableRecord
  2
1
 70
     0
  3

  4

  5

  6

  7

 40
1.0
 41
1.125
 42
0.5
 43
0.375
 44
1.19921875
 45
0.0
 46
0.5
 47
0.0
 48
0.0
140
1.125
141
0.125
142
0.0
143
25.4
144
1.0
145
0.0
146
0.8
147
0.5625
 71
     0
 72
     0
 73
     0
 74
     0
 75
     0
 76
     0
 77
     1
 78
     3
170
     0
171
     2
172
     1
173
     0
174
     1
175
     0
176
   133
177
   133
178
   150
270
     2
271
     3
272
     3
273
     2
274
     2
340
36
275
     0
280
     0
281
     0
282
     0
283
     1
284
     0
285
     0
286
     0
287
     4
288
     0
  0
DIMSTYLE
105
38
330
A
100
AcDbSymbolTableRecord
100
AcDbDimStyleTableRecord
  2
1$2
 70
     0
  3

  4

  5
DOTSMALL
  6

  7

 40
1.0
 41
1.5
 42
0.5
 43
0.375
 44
1.19921875
 45
0.0
 46
0.5
 47
0.0
 48
0.0
140
0.75
141
0.125
142
0.0
143
25.4
144
1.0
145
0.0
146
0.8
147
0.5625
 71
     0
 72
     0
 73
     0
 74
     0
 75
     0
 76
     0
 77
     1
 78
     3
170
     0
171
     2
172
     1
173
     0
174
     1
175
     0
176
   133
177
   133
178
   150
270
     2
271
     3
272
     3
273
     2
274
     2
340
36
275
     0
280
     0
281
     0
282
     0
283
     1
284
     0
285
     0
286
     0
287
     4
288
     0
  0
DIMSTYLE
105
39
330
A
100
AcDbSymbolTableRecord
100
AcDbDimStyleTableRecord
  2
1$4
 70
     0
  3

  4

  5

  6

  7
DOTSMALL
 40
1.0
 41
1.5
 42
0.5
 43
0.375
 44
1.19921875
 45
0.0
 46
0.5
 47
0.0
 48
0.0
140
0.75
141
0.125
142
0.0
143
25.4
144
1.0
145
0.0
146
0.8
147
0.5625
 71
     0
 72
     0
 73
     0
 74
     0
 75
     0
 76
     0
 77
     1
 78
     3
170
     0
171
     2
172
     1
173
     1
174
     1
175
     0
176
   133
177
   133
178
   150
270
     2
271
     3
272
     3
273
     2
274
     2
340
36
275
     0
280
     0
281
     0
282
     0
283
     1
284
     0
285
     0
286
     0
287
     4
288
     0
  0
DIMSTYLE
105
3A
330
A
100
AcDbSymbolTableRecord
100
AcDbDimStyleTableRecord
  2
1$3
 70
     0
  3

  4

  5
DOTSMALL
  6

  7

 40
1.0
 41
1.5
 42
0.5
 43
0.375
 44
1.19921875
 45
0.0
 46
0.5
 47
0.0
 48
0.0
140
0.75
141
0.125
142
0.0
143
25.4
144
1.0
145
0.0
146
0.8
147
0.5625
 71
     0
 72
     0
 73
     0
 74
     0
 75
     0
 76
     0
 77
     1
 78
     3
170
     0
171
     2
172
     1
173
     0
174
     1
175
     0
176
   133
177
   133
178
   150
270
     2
271
     3
272
     3
273
     2
274
     2
340
36
275
     0
280
     0
281
     0
282
     0
283
     1
284
     0
285
     0
286
     0
287
     4
288
     0
  0
DIMSTYLE
105
3B
330
A
100
AcDbSymbolTableRecord
100
AcDbDimStyleTableRecord
  2
1$7
 70
     0
  3

  4

  5

  6

  7

 40
1.0
 41
1.0
 42
0.5
 43
0.375
 44
1.19921875
 45
0.0
 46
0.5
 47
0.0
 48
0.0
140
0.75
141
0.125
142
0.0
143
25.4
144
1.0
145
0.0
146
0.8
147
0.5625
 71
     0
 72
     0
 73
     0
 74
     0
 75
     0
 76
     0
 77
     1
 78
     3
170
     0
171
     2
172
     1
173
     0
174
     1
175
     0
176
   133
177
   133
178
   150
270
     2
271
     3
272
     3
273
     2
274
     2
340
36
275
     0
280
     0
281
     0
282
     0
283
     1
284
     0
285
     0
286
     0
287
     4
288
     0
  0
ENDTAB
  0
TABLE
  2
BLOCK_RECORD
  5
1
330
0
100
AcDbSymbolTable
 70
     5
  0
BLOCK_RECORD
  5
1F
102
{ACAD_XDICTIONARY
360
15C
102
}
330
1
100
AcDbSymbolTableRecord
100
AcDbBlockTableRecord
  2
*MODEL_SPACE
  0
BLOCK_RECORD
  5
1B
102
{ACAD_XDICTIONARY
360
15A
102
}
330
1
100
AcDbSymbolTableRecord
100
AcDbBlockTableRecord
  2
*PAPER_SPACE
  0
BLOCK_RECORD
  5
2B
330
1
100
AcDbSymbolTableRecord
100
AcDbBlockTableRecord
  2
_DOT
  0
BLOCK_RECORD
  5
30
330
1
100
AcDbSymbolTableRecord
100
AcDbBlockTableRecord
  2
_DOTSMALL
  0
BLOCK_RECORD
  5
C2
330
1
100
AcDbSymbolTableRecord
100
AcDbBlockTableRecord
  2
*D3
  0
BLOCK_RECORD
  5
D0
330
1
100
AcDbSymbolTableRecord
100
AcDbBlockTableRecord
  2
*D4
  0
ENDTAB
  0
ENDSEC
  0
SECTION
  2
BLOCKS
  0
BLOCK
  5
20
330
1F
100
AcDbEntity
  8
0
100
AcDbBlockBegin
  2
*MODEL_SPACE
 70
     0
 10
0.0
 20
0.0
 30
0.0
  3
*MODEL_SPACE
  1

  0
ENDBLK
  5
21
330
1F
100
AcDbEntity
  8
0
100
AcDbBlockEnd
  0
BLOCK
  5
1C
330
1B
100
AcDbEntity
 67
     1
  8
0
100
AcDbBlockBegin
  2
*PAPER_SPACE
 70
     0
 10
0.0
 20
0.0
 30
0.0
  3
*PAPER_SPACE
  1

  0
ENDBLK
  5
1D
330
1B
100
AcDbEntity
 67
     1
  8
0
100
AcDbBlockEnd
  0
BLOCK
  5
2E
330
2B
100
AcDbEntity
  8
0
100
AcDbBlockBegin
  2
_DOT
 70
     0
 10
0.0
 20
0.0
 30
0.0
  3
_DOT
  1

  0
POLYLINE
  5
2C
330
2B
100
AcDbEntity
  8
L
 62
     0
100
AcDb2dPolyline
 66
     1
 10
0.0
 20
0.0
 30
0.0
 70
     1
 40
0.5
 41
0.5
  0
VERTEX
  5
160
330
2C
100
AcDbEntity
  8
L
 62
     0
100
AcDbVertex
100
AcDb2dVertex
 10
-0.25
 20
0.0
 30
0.0
 42
1.0
  0
VERTEX
  5
161
330
2C
100
AcDbEntity
  8
L
 62
     0
100
AcDbVertex
100
AcDb2dVertex
 10
0.25
 20
0.0
 30
0.0
 42
1.0
  0
SEQEND
  5
162
330
2C
100
AcDbEntity
  8
L
 62
     0
  0
LINE
  5
2D
330
2B
100
AcDbEntity
  8
L
 62
     0
100
AcDbLine
 10
-0.5
 20
0.0
 30
0.0
 11
-1.0
 21
0.0
 31
0.0
  0
ENDBLK
  5
2F
330
2B
100
AcDbEntity
  8
0
100
AcDbBlockEnd
  0
BLOCK
  5
32
330
30
100
AcDbEntity
  8
0
 48
0.116666
100
AcDbBlockBegin
  2
_DOTSMALL
 70
     0
 10
0.0
 20
0.0
 30
0.0
  3
_DOTSMALL
  1

  0
POLYLINE
  5
31
330
30
100
AcDbEntity
  8
0
  6
BYBLOCK
 62
     0
100
AcDb2dPolyline
 66
     1
 10
0.0
 20
0.0
 30
0.0
 70
     1
 40
0.5
 41
0.5
  0
VERTEX
  5
163
330
31
100
AcDbEntity
  8
0
  6
BYBLOCK
 62
     0
100
AcDbVertex
100
AcDb2dVertex
 10
-0.0625
 20
0.0
 30
0.0
 42
1.0
  0
VERTEX
  5
164
330
31
100
AcDbEntity
  8
0
  6
BYBLOCK
 62
     0
100
AcDbVertex
100
AcDb2dVertex
 10
0.0625
 20
0.0
 30
0.0
 42
1.0
  0
SEQEND
  5
165
330
31
100
AcDbEntity
  8
0
  6
BYBLOCK
 62
     0
  0
ENDBLK
  5
33
330
30
100
AcDbEntity
  8
0
 48
0.116666
100
AcDbBlockEnd
  0
BLOCK
  5
CD
330
C2
100
AcDbEntity
  8
0
100
AcDbBlockBegin
  2
*D3
 70
     1
 10
0.0
 20
0.0
 30
0.0
  3
*D3
  1

  0
LINE
  5
C3
330
C2
100
AcDbEntity
  8
0
 62
     0
100
AcDbLine
 10
6.408940435490727
 20
6.694648301313037
 30
0.0
 11
6.408940435490727
 21
7.412904642362157
 31
0.0
  0
LINE
  5
C4
330
C2
100
AcDbEntity
  8
0
 62
     0
100
AcDbLine
 10
7.3289404354908
 20
6.829648301313028
 30
0.0
 11
7.3289404354908
 21
7.412904642362157
 31
0.0
  0
LINE
  5
C5
330
C2
100
AcDbEntity
  8
0
 62
     0
100
AcDbLine
 10
6.228940435490727
 20
7.232904642362157
 30
0.0
 11
6.048940435490727
 21
7.232904642362157
 31
0.0
  0
LINE
  5
C6
330
C2
100
AcDbEntity
  8
0
 62
     0
100
AcDbLine
 10
7.508940435490799
 20
7.232904642362157
 30
0.0
 11
7.6889404354908
 21
7.232904642362157
 31
0.0
  0
SOLID
  5
C7
330
C2
100
AcDbEntity
  8
0
 62
     0
100
AcDbTrace
 10
6.228940435490727
 20
7.262904642362157
 30
0.0
 11
6.228940435490727
 21
7.202904642362157
 31
0.0
 12
6.408940435490727
 22
7.232904642362157
 32
0.0
 13
6.408940435490727
 23
7.232904642362157
 33
0.0
  0
SOLID
  5
C8
330
C2
100
AcDbEntity
  8
0
 62
     0
100
AcDbTrace
 10
7.508940435490799
 20
7.262904642362157
 30
0.0
 11
7.508940435490799
 21
7.202904642362157
 31
0.0
 12
7.3289404354908
 22
7.232904642362157
 32
0.0
 13
7.3289404354908
 23
7.232904642362157
 33
0.0
  0
MTEXT
  5
C9
330
C2
100
AcDbEntity
  8
0
 62
     0
100
AcDbMText
 10
6.868940435490763
 20
7.232904642362157
 30
0.0
 40
0.18
 41
0.0
 71
     5
 72
     1
  1
\A1;0.92
1001
ACAD
1000
MTEXTBEGIN
1070
    73
1070
     1
1070
    44
1040
1.0
1070
    74
1070
     0
1000
MTEXTEND
  0
POINT
  5
CA
330
C2
100
AcDbEntity
  8
DEFPOINTS
 62
     0
100
AcDbPoint
 10
6.408940435490727
 20
6.632148301313037
 30
0.0
  0
POINT
  5
CB
330
C2
100
AcDbEntity
  8
DEFPOINTS
 62
     0
100
AcDbPoint
 10
7.3289404354908
 20
6.767148301313028
 30
0.0
  0
POINT
  5
CC
330
C2
100
AcDbEntity
  8
DEFPOINTS
 62
     0
100
AcDbPoint
 10
7.3289404354908
 20
7.232904642362157
 30
0.0
  0
ENDBLK
  5
CE
330
C2
100
AcDbEntity
  8
0
100
AcDbBlockEnd
  0
BLOCK
  5
DB
330
D0
100
AcDbEntity
  8
0
100
AcDbBlockBegin
  2
*D4
 70
     1
 10
0.0
 20
0.0
 30
0.0
  3
*D4
  1

  0
LINE
  5
D1
330
D0
100
AcDbEntity
  8
0
 62
     0
100
AcDbLine
 10
6.606440435490718
 20
6.777148301313019
 30
0.0
 11
5.699083369769727
 21
6.77714830131302
 31
0.0
  0
LINE
  5
D2
330
D0
100
AcDbEntity
  8
0
 62
     0
100
AcDbLine
 10
6.606440435490718
 20
5.777148301313019
 30
0.0
 11
5.699083369769726
 21
5.77714830131302
 31
0.0
  0
LINE
  5
D3
330
D0
100
AcDbEntity
  8
0
 62
     0
100
AcDbLine
 10
5.879083369769727
 20
6.59714830131302
 30
0.0
 11
5.879083369769727
 21
6.457148301313019
 31
0.0
  0
LINE
  5
D4
330
D0
100
AcDbEntity
  8
0
 62
     0
100
AcDbLine
 10
5.879083369769726
 20
5.957148301313019
 30
0.0
 11
5.879083369769727
 21
6.09714830131302
 31
0.0
  0
SOLID
  5
D5
330
D0
100
AcDbEntity
  8
0
 62
     0
100
AcDbTrace
 10
5.849083369769727
 20
6.59714830131302
 30
0.0
 11
5.909083369769727
 21
6.59714830131302
 31
0.0
 12
5.879083369769727
 22
6.77714830131302
 32
0.0
 13
5.879083369769727
 23
6.77714830131302
 33
0.0
  0
SOLID
  5
D6
330
D0
100
AcDbEntity
  8
0
 62
     0
100
AcDbTrace
 10
5.849083369769726
 20
5.957148301313019
 30
0.0
 11
5.909083369769726
 21
5.957148301313019
 31
0.0
 12
5.879083369769726
 22
5.77714830131302
 32
0.0
 13
5.879083369769726
 23
5.77714830131302
 33
0.0
  0
MTEXT
  5
D7
330
D0
100
AcDbEntity
  8
0
 62
     0
100
AcDbMText
 10
5.879083369769725
 20
6.277148301313021
 30
0.0
 40
0.18
 41
0.0
 71
     5
 72
     1
  1
\A1;1.00
1001
ACAD
1000
MTEXTBEGIN
1070
    73
1070
     1
1070
    44
1040
1.0
1070
    74
1070
     0
1000
MTEXTEND
  0
POINT
  5
D8
330
D0
100
AcDbEntity
  8
DEFPOINTS
 62
     0
100
AcDbPoint
 10
6.668940435490718
 20
6.777148301313019
 30
0.0
  0
POINT
  5
D9
330
D0
100
AcDbEntity
  8
DEFPOINTS
 62
     0
100
AcDbPoint
 10
6.668940435490718
 20
5.777148301313019
 30
0.0
  0
POINT
  5
DA
330
D0
100
AcDbEntity
  8
DEFPOINTS
 62
     0
100
AcDbPoint
 10
5.879083369769726
 20
5.77714830131302
 30
0.0
  0
ENDBLK
  5
DC
330
D0
100
AcDbEntity
  8
0
100
AcDbBlockEnd
  0
ENDSEC
  0
SECTION
  2
ENTITIES
  0
POLYLINE
  5
BD
330
1F
100
AcDbEntity
  8
L
 62
     5
 48
0.116666
100
AcDb2dPolyline
 66
     1
 10
0.0
 20
0.0
 30
0.0
 40
0.028125
 41
0.028125
  0
VERTEX
  5
166
330
BD
100
AcDbEntity
  8
L
 62
     5
 48
0.116666
100
AcDbVertex
100
AcDb2dVertex
 10
5.416249801645356
 20
4.967075822695218
 30
0.0
  0
VERTEX
  5
167
330
BD
100
AcDbEntity
  8
L
 62
     5
 48
0.116666
100
AcDbVertex
100
AcDb2dVertex
 10
8.220677603369516
 20
4.967075822695218
 30
0.0
  0
SEQEND
  5
168
330
BD
100
AcDbEntity
  8
L
 62
     5
 48
0.116666
  0
TEXT
  5
BE
330
1F
100
AcDbEntity
  8
L
 62
     3
 48
0.116666
100
AcDbText
 10
5.509985644326455
 20
5.060811665376203
 30
0.0
 40
0.140625
  1
INSERT DIVIDER #1668
  7
REG
100
AcDbText
  0
TEXT
  5
BF
330
1F
100
AcDbEntity
  8
TX
 48
0.116666
100
AcDbText
 10
5.509985644326455
 20
4.779589980014232
 30
0.0
 40
0.09375
  1
SCALE : FULL SIZE
  7
REG
 11
5.509985644326455
 21
4.873339980014232
 31
0.0
100
AcDbText
 73
     3
  0
DIMENSION
  5
C1
330
1F
100
AcDbEntity
  8
0
100
AcDbDimension
  2
*D3
 10
7.3289404354908
 20
7.232904642362157
 30
0.0
 11
6.868940435490763
 21
7.232904642362157
 31
0.0
 70
    32
  3
STANDARD
100
AcDbAlignedDimension
 13
6.408940435490727
 23
6.632148301313037
 33
0.0
 14
7.3289404354908
 24
6.767148301313028
 34
0.0
100
AcDbRotatedDimension
  0
DIMENSION
  5
CF
330
1F
100
AcDbEntity
  8
0
100
AcDbDimension
  2
*D4
 10
5.879083369769726
 20
5.77714830131302
 30
0.0
 11
5.879083369769725
 21
6.277148301313021
 31
0.0
 70
    32
  3
STANDARD
100
AcDbAlignedDimension
 13
6.668940435490718
 23
6.777148301313019
 33
0.0
 14
6.668940435490718
 24
5.777148301313019
 34
0.0
 50
90.0
100
AcDbRotatedDimension
  0
POLYLINE
  5
11E
330
1F
100
AcDbEntity
  8
L
 62
     5
100
AcDb2dPolyline
 66
     1
 10
0.0
 20
0.0
 30
0.0
 70
     1
  0
VERTEX
  5
169
330
11E
100
AcDbEntity
  8
L
 62
     5
100
AcDbVertex
100
AcDb2dVertex
 10
6.628940435490754
 20
6.597148301312955
 30
0.0
  0
VERTEX
  5
16A
330
11E
100
AcDbEntity
  8
L
 62
     5
100
AcDbVertex
100
AcDb2dVertex
 10
6.508940435490636
 20
6.597148301312955
 30
0.0
 42
0.4142135623730951
  0
VERTEX
  5
16B
330
11E
100
AcDbEntity
  8
L
 62
     5
100
AcDbVertex
100
AcDb2dVertex
 10
6.488940435490654
 20
6.577148301312973
 30
0.0
  0
VERTEX
  5
16C
330
11E
100
AcDbEntity
  8
L
 62
     5
100
AcDbVertex
100
AcDb2dVertex
 10
6.488940435490711
 20
6.477148301313064
 30
0.0
 42
-0.9999999999999998
  0
VERTEX
  5
16D
330
11E
100
AcDbEntity
  8
L
 62
     5
100
AcDbVertex
100
AcDb2dVertex
 10
6.408940435490727
 20
6.477148301313064
 30
0.0
  0
VERTEX
  5
16E
330
11E
100
AcDbEntity
  8
L
 62
     5
100
AcDbVertex
100
AcDb2dVertex
 10
6.408940435490727
 20
6.632148301313037
 30
0.0
 42
-0.4142135623730951
  0
VERTEX
  5
16F
330
11E
100
AcDbEntity
  8
L
 62
     5
100
AcDbVertex
100
AcDb2dVertex
 10
6.44894043549069
 20
6.672148301313001
 30
0.0
  0
VERTEX
  5
170
330
11E
100
AcDbEntity
  8
L
 62
     5
100
AcDbVertex
100
AcDb2dVertex
 10
6.628940435490754
 20
6.672148301313001
 30
0.0
 42
0.4142135623730951
  0
VERTEX
  5
171
330
11E
100
AcDbEntity
  8
L
 62
     5
100
AcDbVertex
100
AcDb2dVertex
 10
6.648940435490736
 20
6.692148301312982
 30
0.0
  0
VERTEX
  5
172
330
11E
100
AcDbEntity
  8
L
 62
     5
100
AcDbVertex
100
AcDb2dVertex
 10
6.648940435490736
 20
6.757148301313037
 30
0.0
 42
-0.4142135623730951
  0
VERTEX
  5
173
330
11E
100
AcDbEntity
  8
L
 62
     5
100
AcDbVertex
100
AcDb2dVertex
 10
6.668940435490718
 20
6.777148301313019
 30
0.0
  0
VERTEX
  5
174
330
11E
100
AcDbEntity
  8
L
 62
     5
100
AcDbVertex
100
AcDb2dVertex
 10
7.318940435490581
 20
6.777148301313246
 30
0.0
 42
-0.4142135623797547
  0
VERTEX
  5
175
330
11E
100
AcDbEntity
  8
L
 62
     5
100
AcDbVertex
100
AcDb2dVertex
 10
7.3289404354908
 20
6.767148301313028
 30
0.0
  0
VERTEX
  5
176
330
11E
100
AcDbEntity
  8
L
 62
     5
100
AcDbVertex
100
AcDb2dVertex
 10
7.3289404354908
 20
6.704148301312926
 30
0.0
 42
-0.4142135623730951
  0
VERTEX
  5
177
330
11E
100
AcDbEntity
  8
L
 62
     5
100
AcDbVertex
100
AcDb2dVertex
 10
7.308940435490818
 20
6.684148301312944
 30
0.0
  0
VERTEX
  5
178
330
11E
100
AcDbEntity
  8
L
 62
     5
100
AcDbVertex
100
AcDb2dVertex
 10
6.9239404354906
 20
6.684148301312944
 30
0.0
 42
0.4142135623730951
  0
VERTEX
  5
179
330
11E
100
AcDbEntity
  8
L
 62
     5
100
AcDbVertex
100
AcDb2dVertex
 10
6.903940435490618
 20
6.664148301312962
 30
0.0
  0
VERTEX
  5
17A
330
11E
100
AcDbEntity
  8
L
 62
     5
100
AcDbVertex
100
AcDb2dVertex
 10
6.903940435490618
 20
6.612148301313055
 30
0.0
 42
-0.4142135623730951
  0
VERTEX
  5
17B
330
11E
100
AcDbEntity
  8
L
 62
     5
100
AcDbVertex
100
AcDb2dVertex
 10
6.883940435490636
 20
6.592148301313073
 30
0.0
  0
VERTEX
  5
17C
330
11E
100
AcDbEntity
  8
L
 62
     5
100
AcDbVertex
100
AcDb2dVertex
 10
6.873940435490872
 20
6.592148301313073
 30
0.0
 42
-0.4142135623730951
  0
VERTEX
  5
17D
330
11E
100
AcDbEntity
  8
L
 62
     5
100
AcDbVertex
100
AcDb2dVertex
 10
6.853940435490891
 20
6.612148301313055
 30
0.0
  0
VERTEX
  5
17E
330
11E
100
AcDbEntity
  8
L
 62
     5
100
AcDbVertex
100
AcDb2dVertex
 10
6.853940435490947
 20
6.664148301312962
 30
0.0
 42
0.4142135623764248
  0
VERTEX
  5
17F
330
11E
100
AcDbEntity
  8
L
 62
     5
100
AcDbVertex
100
AcDb2dVertex
 10
6.833940435490681
 20
6.684148301312944
 30
0.0
  0
VERTEX
  5
180
330
11E
100
AcDbEntity
  8
L
 62
     5
100
AcDbVertex
100
AcDb2dVertex
 10
6.793940435490718
 20
6.684148301312937
 30
0.0
 42
0.320268130213198
  0
VERTEX
  5
181
330
11E
100
AcDbEntity
  8
L
 62
     5
100
AcDbVertex
100
AcDb2dVertex
 10
6.775026155171362
 20
6.67064830131289
 30
0.0
 42
-0.3202681302121797
  0
VERTEX
  5
182
330
11E
100
AcDbEntity
  8
L
 62
     5
100
AcDbVertex
100
AcDb2dVertex
 10
6.756111874852045
 20
6.657148301313128
 30
0.0
  0
VERTEX
  5
183
330
11E
100
AcDbEntity
  8
L
 62
     5
100
AcDbVertex
100
AcDb2dVertex
 10
6.733940435490772
 20
6.657148301313185
 30
0.0
 42
0.4142135623730951
  0
VERTEX
  5
184
330
11E
100
AcDbEntity
  8
L
 62
     5
100
AcDbVertex
100
AcDb2dVertex
 10
6.723940435490781
 20
6.647148301313137
 30
0.0
  0
VERTEX
  5
185
330
11E
100
AcDbEntity
  8
L
 62
     5
100
AcDbVertex
100
AcDb2dVertex
 10
6.723940435490725
 20
5.907148301313128
 30
0.0
 42
0.4142135623664355
  0
VERTEX
  5
186
330
11E
100
AcDbEntity
  8
L
 62
     5
100
AcDbVertex
100
AcDb2dVertex
 10
6.733940435490772
 20
5.897148301313137
 30
0.0
  0
VERTEX
  5
187
330
11E
100
AcDbEntity
  8
L
 62
     5
100
AcDbVertex
100
AcDb2dVertex
 10
6.756111874852045
 20
5.897148301313215
 30
0.0
 42
-0.3202681302121796
  0
VERTEX
  5
188
330
11E
100
AcDbEntity
  8
L
 62
     5
100
AcDbVertex
100
AcDb2dVertex
 10
6.775026155171339
 20
5.88364830131314
 30
0.0
 42
0.3202681302131983
  0
VERTEX
  5
189
330
11E
100
AcDbEntity
  8
L
 62
     5
100
AcDbVertex
100
AcDb2dVertex
 10
6.793940435490718
 20
5.870148301313093
 30
0.0
  0
VERTEX
  5
18A
330
11E
100
AcDbEntity
  8
L
 62
     5
100
AcDbVertex
100
AcDb2dVertex
 10
6.833940435490681
 20
5.870148301313037
 30
0.0
 42
0.4142135623764248
  0
VERTEX
  5
18B
330
11E
100
AcDbEntity
  8
L
 62
     5
100
AcDbVertex
100
AcDb2dVertex
 10
6.853940435490891
 20
5.890148301313075
 30
0.0
  0
VERTEX
  5
18C
330
11E
100
AcDbEntity
  8
L
 62
     5
100
AcDbVertex
100
AcDb2dVertex
 10
6.853940435490891
 20
5.942148301312982
 30
0.0
 42
-0.4142135623730951
  0
VERTEX
  5
18D
330
11E
100
AcDbEntity
  8
L
 62
     5
100
AcDbVertex
100
AcDb2dVertex
 10
6.873940435490872
 20
5.962148301312964
 30
0.0
  0
VERTEX
  5
18E
330
11E
100
AcDbEntity
  8
L
 62
     5
100
AcDbVertex
100
AcDb2dVertex
 10
6.883940435490636
 20
5.962148301312964
 30
0.0
 42
-0.4142135623730951
  0
VERTEX
  5
18F
330
11E
100
AcDbEntity
  8
L
 62
     5
100
AcDbVertex
100
AcDb2dVertex
 10
6.903940435490618
 20
5.942148301312982
 30
0.0
  0
VERTEX
  5
190
330
11E
100
AcDbEntity
  8
L
 62
     5
100
AcDbVertex
100
AcDb2dVertex
 10
6.903940435490618
 20
5.890148301313075
 30
0.0
 42
0.4142135623730951
  0
VERTEX
  5
191
330
11E
100
AcDbEntity
  8
L
 62
     5
100
AcDbVertex
100
AcDb2dVertex
 10
6.9239404354906
 20
5.870148301313093
 30
0.0
  0
VERTEX
  5
192
330
11E
100
AcDbEntity
  8
L
 62
     5
100
AcDbVertex
100
AcDb2dVertex
 10
7.308940435490818
 20
5.870148301313093
 30
0.0
 42
-0.4142135623730951
  0
VERTEX
  5
193
330
11E
100
AcDbEntity
  8
L
 62
     5
100
AcDbVertex
100
AcDb2dVertex
 10
7.3289404354908
 20
5.850148301313112
 30
0.0
  0
VERTEX
  5
194
330
11E
100
AcDbEntity
  8
L
 62
     5
100
AcDbVertex
100
AcDb2dVertex
 10
7.328940435490572
 20
5.78714830131301
 30
0.0
 42
-0.4142135623797544
  0
VERTEX
  5
195
330
11E
100
AcDbEntity
  8
L
 62
     5
100
AcDbVertex
100
AcDb2dVertex
 10
7.318940435490581
 20
5.777148301313019
 30
0.0
  0
VERTEX
  5
196
330
11E
100
AcDbEntity
  8
L
 62
     5
100
AcDbVertex
100
AcDb2dVertex
 10
6.668940435490718
 20
5.777148301313019
 30
0.0
 42
-0.4142135623730951
  0
VERTEX
  5
197
330
11E
100
AcDbEntity
  8
L
 62
     5
100
AcDbVertex
100
AcDb2dVertex
 10
6.648940435490736
 20
5.797148301313001
 30
0.0
  0
VERTEX
  5
198
330
11E
100
AcDbEntity
  8
L
 62
     5
100
AcDbVertex
100
AcDb2dVertex
 10
6.648940435490736
 20
5.862148301313055
 30
0.0
 42
0.4142135623730951
  0
VERTEX
  5
199
330
11E
100
AcDbEntity
  8
L
 62
     5
100
AcDbVertex
100
AcDb2dVertex
 10
6.628940435490754
 20
5.882148301313037
 30
0.0
  0
VERTEX
  5
19A
330
11E
100
AcDbEntity
  8
L
 62
     5
100
AcDbVertex
100
AcDb2dVertex
 10
6.44894043549069
 20
5.882148301313037
 30
0.0
 42
-0.4142135623730951
  0
VERTEX
  5
19B
330
11E
100
AcDbEntity
  8
L
 62
     5
100
AcDbVertex
100
AcDb2dVertex
 10
6.408940435490727
 20
5.922148301313001
 30
0.0
  0
VERTEX
  5
19C
330
11E
100
AcDbEntity
  8
L
 62
     5
100
AcDbVertex
100
AcDb2dVertex
 10
6.40894043549067
 20
6.077148301312973
 30
0.0
 42
-0.9999999999999998
  0
VERTEX
  5
19D
330
11E
100
AcDbEntity
  8
L
 62
     5
100
AcDbVertex
100
AcDb2dVertex
 10
6.488940435490654
 20
6.077148301312973
 30
0.0
  0
VERTEX
  5
19E
330
11E
100
AcDbEntity
  8
L
 62
     5
100
AcDbVertex
100
AcDb2dVertex
 10
6.488940435490654
 20
5.977148301313064
 30
0.0
 42
0.4142135623730951
  0
VERTEX
  5
19F
330
11E
100
AcDbEntity
  8
L
 62
     5
100
AcDbVertex
100
AcDb2dVertex
 10
6.508940435490636
 20
5.957148301313083
 30
0.0
  0
VERTEX
  5
1A0
330
11E
100
AcDbEntity
  8
L
 62
     5
100
AcDbVertex
100
AcDb2dVertex
 10
6.628940435490754
 20
5.957148301313083
 30
0.0
 42
0.4142135623730951
  0
VERTEX
  5
1A1
330
11E
100
AcDbEntity
  8
L
 62
     5
100
AcDbVertex
100
AcDb2dVertex
 10
6.648940435490736
 20
5.977148301313064
 30
0.0
  0
VERTEX
  5
1A2
330
11E
100
AcDbEntity
  8
L
 62
     5
100
AcDbVertex
100
AcDb2dVertex
 10
6.648940435490736
 20
6.577148301312973
 30
0.0
 42
0.4142135623730951
  0
SEQEND
  5
1A3
330
11E
100
AcDbEntity
  8
L
 62
     5
  0
ENDSEC
  0
SECTION
  2
OBJECTS
  0
DICTIONARY
  5
C
330
0
100
AcDbDictionary
  3
ACAD_GROUP
350
D
  3
ACAD_LAYOUT
350
1A
  3
ACAD_MLINESTYLE
350
17
  3
ACAD_PLOTSETTINGS
350
19
1001
ACAD
1000
TREAT_AS_HARD
1070
     0
  0
DICTIONARY
  5
15C
330
1F
100
AcDbDictionary
  3
ACAD_LAYOUTSELFREF
350
15D
  0
DICTIONARY
  5
15A
330
1B
100
AcDbDictionary
  3
ACAD_LAYOUTSELFREF
350
15B
  0
DICTIONARY
  5
D
102
{ACAD_REACTORS
330
C
102
}
330
C
100
AcDbDictionary
1001
ACAD
1000
TREAT_AS_HARD
1070
     0
  0
DICTIONARY
  5
1A
102
{ACAD_REACTORS
330
C
102
}
330
C
100
AcDbDictionary
1001
ACAD
1000
TREAT_AS_HARD
1070
     0
  0
DICTIONARY
  5
17
102
{ACAD_REACTORS
330
C
102
}
330
C
100
AcDbDictionary
  3
STANDARD
350
18
1001
ACAD
1000
TREAT_AS_HARD
1070
     0
  0
DICTIONARY
  5
19
102
{ACAD_REACTORS
330
C
102
}
330
C
100
AcDbDictionary
1001
ACAD
1000
TREAT_AS_HARD
1070
     0
  0
XRECORD
  5
15D
102
{ACAD_REACTORS
330
15C
102
}
330
15C
100
AcDbXrecord
340
1F
  0
XRECORD
  5
15B
102
{ACAD_REACTORS
330
15A
102
}
330
15A
100
AcDbXrecord
340
1B
  0
MLINESTYLE
  5
18
102
{ACAD_REACTORS
330
17
102
}
330
17
100
AcDbMlineStyle
  2
STANDARD
 70
     0
  3

 62
   256
 51
90.0
 52
90.0
 71
     2
 49
0.5
 62
   256
  6
BYLAYER
 49
-0.5
 62
   256
  6
BYLAYER
  0
ENDSEC
  0
EOF
